Maitre Gims - Bella [Music Video] 1080p

Maitre Gims - Bella [Music Video] 1080p
General Complete name : Maitre Gims - Bella [Music Video] 1080p [Sbyky].mp4 Format : MPEG-4 Format profile : Base Media / Version 2 Codec ID : mp42 File size : 117 MiB Duration : 4mn 42s Overall bit rate mode : Variable Overall bit rate : 3 475 Kbps Encoded date : UTC 2013-06-17 13:34:37 Tagged date : UTC 2013-06-17 13:34:37 Video ID : 1 Format : AVC Format/Info : Advanced Video Codec Format profile : [email protected] Format settings, CABAC : Yes Format settings, ReFrames : 1 frame Format settings, GOP : M=1, N=50 Codec ID : avc1 Codec ID/Info : Advanced Video Coding Duration : 4mn 42s Bit rate : 3 280 Kbps Maximum bit rate : 6 050 Kbps Width : 1 920 pixels Height : 1 080 pixels Display aspect ratio : 16:9 Frame rate mode : Constant Frame rate : 25.000 fps Color space : YUV Chroma subsampling : 4:2:0 Bit depth : 8 bits Scan type : Progressive Bits/(Pixel*Frame) : 0.063 Stream size : 110 MiB (94%) Tagged date : UTC 2013-06-17 13:34:43 Audio ID : 2 Format : AAC Format/Info : Advanced Audio Codec Format profile : LC Codec ID : 40 Duration : 4mn 42s Bit rate mode : Variable Bit rate : 192 Kbps Maximum bit rate : 203 Kbps Channel(s) : 2 channels Channel positions : Front: L R Sampling rate : 44.1 KHz Compression mode : Lossy Stream size : 6.46 MiB (6%) Title : IsoMedia File Produced by Google, 5-11-2011 Encoded date : UTC 2013-06-17 13:34:41 Tagged date : UTC 2013-06-17 13:34:43
Category: HD Music Video Size: 116.95 MB Download

OU
Maitre Gims - Bella [Music Video] 1080p en Lien Direct usenet
Inscrivez vous pour le télécharger


OU

Téléchargez Maitre Gims - Bella [Music Video] 1080p sur rapidshare hotfile fileserve uploaded , Maitre Gims - Bella [Music Video] 1080p en torrent.

Si Vous aimer cette article cliquer sur +1 pour encourager le Posteur

 

 



Categorie

Les Plus Recherches

Top Films

Archives

Statistiques du site

Nom d'utilisateur :
Mot de passe :
Mot de passe perdu?

Publicite